#TITLE:旋转;
#SUBTITLE:;
#ARTIST:Mina;
#TITLETRANSLIT:;
#SUBTITLETRANSLIT:;
#ARTISTTRANSLIT:;
#CREDIT:;
#BANNER:q-logo.jpg;
#BACKGROUND:q.jpg;
#LYRICSPATH:;
#CDTITLE:Lan.png;
#MUSIC:q.mp3;
#OFFSET:-0.020;
#SAMPLESTART:100.000;
#SAMPLELENGTH:12.000;
#SELECTABLE:YES;
#BPMS:0.000=113.020;
#STOPS:;
#BGCHANGES:;
// cache tags:
#FIRSTBEAT:4.000;
#LASTBEAT:278.000;
#SONGFILENAME:Songs/SDO 2/q/q.sm;
#HASMUSIC:1;
#HASBANNER:1;
#MUSICLENGTH:150.820;
// end cache tags

//---------------dance-single - sky----------------
#NOTES:
     dance-single:
     sky:
     Hard:
     9:
     0.914,0.968,1.000,0.073,0.935,763.000,190.000,11.000,0.000,5.000:

0000
0000
0000
0000
,
1010
0000
0100
0000
0100
0000
0100
0000
1000
0000
0000
0010
0000
0000
0010
0000
,
0100
0010
0000
0000
0001
0000
0000
0100
0000
0000
0010
0000
0010
0000
1000
0000
,
0101
0000
0010
0000
0010
0000
0010
0000
0010
0000
0000
0100
0000
0000
0010
0000
,
1000
0100
0000
0001
0010
0000
1000
0100
0000
0001
0010
0000
1000
0000
0100
0000
,
0001
0010
0001
0010
1000
0100
1000
0100
1000
0001
1000
0001
1000
0001
1000
0001
,
1000
0100
1000
0100
0001
0010
0001
0010
0001
1000
0001
1000
0001
1000
0001
1000
,
0001
0010
0001
0010
0100
1000
0100
1000
0100
0010
0100
0010
0100
0010
0100
0010
,
1000
0100
1000
0100
0010
0001
0010
0001
0100
0010
0100
0010
0100
0010
0100
0010
,
0001
0010
0001
0010
1000
0100
1000
0100
1000
0001
1000
0001
1000
0001
1000
0001
,
1000
0100
1000
0100
0001
0010
0001
0010
0001
1000
0001
1000
0001
1000
0001
1000
,
0001
0010
0001
0010
0100
1000
0100
1000
0100
0010
0100
0010
0100
0010
0100
0010
,
1000
0100
1000
0100
0010
0001
0010
0001
0100
0010
0100
0010
0100
0010
0100
0010
,
1000
1000
0101
0110
1000
0001
0110
0000
,
0001
0010
1100
1010
0001
0100
0011
0000
,
0100
0001
0110
1100
0010
0001
0101
0000
,
0010
1000
0101
1010
0001
0100
0011
0000
,
1100
0000
0110
0000
0011
0000
0110
0000
1100
1100
0000
0000
0101
0000
0000
0000
,
0011
0000
0110
0000
1100
0000
0110
0000
0011
0011
0000
0000
1010
0000
0000
0000
,
0100
1000
0011
0101
0010
1000
0110
0000
,
1000
0000
0010
0100
0001
0000
0001
0000
0001
0000
0000
0000
1100
0000
0000
0000
,
0010
0100
0011
0101
1000
0010
1100
0000
,
1000
0001
0110
1100
0010
0001
0101
0000
,
0100
0010
1100
0011
0010
1000
0101
0000
,
0010
1000
0110
0101
0010
1000
1100
0000
,
1100
0000
1100
0000
0011
0000
0011
0000
0110
1001
0000
0000
0110
0000
0000
0000
,
0011
0000
0011
0000
1100
0000
1100
0000
1001
0110
0000
0000
1001
0000
0000
0000
,
0100
0010
0011
1010
0100
1000
0101
0000
,
1000
0100
0000
0001
0010
0000
1000
0100
0000
0001
0010
0000
1000
0000
0100
0000
,
1000
0100
1000
0100
1000
0100
1000
0100
0001
0010
0001
0010
0001
0010
0001
0010
,
0101
1010
0110
1010
0101
1100
0011
1100
,
0100
1000
0100
1000
0100
1000
0100
1000
0010
0001
0010
0001
0010
0001
0010
0001
,
0110
1100
0011
0101
1010
1100
0011
1001
,
1000
0010
1000
0010
1000
0010
1000
0010
0001
0100
0001
0100
0001
0100
0001
0100
,
0011
1010
1100
0110
1010
0101
0110
1001
,
0010
1000
0010
1000
0010
1000
0010
1000
0100
0001
0100
0001
0100
0001
0100
0001
,
1010
1100
0011
0110
1001
0101
1001
0000
,
0011
0010
0001
0010
1100
1000
0100
1000
0110
0010
0100
0010
0110
0010
0100
0010
,
1100
0100
1000
0100
0011
0001
0010
0001
0110
0010
0100
0010
0110
0010
0100
0010
,
0011
0010
0001
0010
1100
1000
0100
1000
0110
0010
0100
0010
0110
0010
0100
0010
,
1100
0100
1000
0100
0011
0001
0010
0001
0110
0010
0100
0010
0110
0010
0100
0010
,
0011
0010
0001
0010
1100
1000
0100
1000
0110
0010
0100
0010
0110
0010
0100
0010
,
1100
0100
1000
0100
0011
0001
0010
0001
0110
0010
0100
0010
0110
0010
0100
0010
,
0011
0010
0001
0010
1100
1000
0100
1000
0110
0010
0100
0010
0110
0010
0100
0010
,
1000
0100
0010
0001
0000
1000
0000
0001
0010
1000
0100
0010
0000
0000
0000
0000
,
1000
0100
1000
0100
0010
0001
0010
0001
0010
0100
0010
0100
1000
0100
1000
0100
,
0010
0001
0010
0001
0010
0100
0010
0100
1000
0100
1000
0100
0010
0001
0010
0001
,
0010
0100
0010
0100
1000
0100
1000
0100
0010
0001
0010
0001
0010
0100
0010
0100
,
1000
0100
1000
0100
0010
0001
0010
0001
0010
0100
0010
0100
1000
0100
1000
0100
,
0022
0000
0000
0000
,
2233
0000
0000
0000
,
3322
0000
2233
0000
,
3301
0010
0000
1000
0100
0000
0001
0010
0000
1000
0100
0000
0010
0000
0100
0000
,
1000
0100
1000
0100
1000
0100
1000
0100
0001
0010
0001
0010
0001
0010
0001
0010
,
0101
1010
0110
1010
0101
1100
0011
1100
,
0100
1000
0100
1000
0100
1000
0100
1000
0010
0001
0010
0001
0010
0001
0010
0001
,
0110
1100
0011
0101
1010
1100
0011
1001
,
1000
0010
1000
0010
1000
0010
1000
0010
0001
0100
0001
0100
0001
0100
0001
0100
,
0011
1010
1100
0110
1010
0101
0110
1001
,
0010
1000
0010
1000
0010
1000
0010
1000
0100
0001
0100
0001
0100
0001
0100
0001
,
1010
1100
0011
0110
1001
0101
1001
0000
,
1001
0100
1000
0100
1001
0100
1000
0100
1001
0100
1000
0100
1001
0100
1000
0100
,
0011
0000
0010
0000
0100
0000
1000
0010
0101
0000
0101
0000
0101
0000
0000
0000
,
1001
0010
0001
0010
1001
0010
0001
0010
1001
0010
0001
0010
1001
0010
0001
0010
,
1100
0000
0100
0000
0010
0000
0001
0100
1010
0000
1010
0000
1010
0000
0000
0000
,
1001
0100
1000
0100
1001
0100
1000
0100
1001
0100
1000
0100
1001
0100
1000
0100
,
0011
0000
0010
0000
0100
0000
1000
0010
0101
0000
0101
0000
0101
0000
0000
0000
,
1001
0010
0001
0010
1001
0010
0001
0010
1001
0010
0001
0010
1001
0010
0001
0010
,
1000
1100
0000
0001
0011
0000
1000
1100
0000
0001
0011
0000
1100
0000
0110
0000
,
2022
0000
3033
0000
;
